fastshare
V hlavní roli Gustáv Husák (2008)
Vypnout statistiky
KATEGORIEPOSLEDNÍ PŘÍSPĚVKYPOSLEDNÍ OZNÁMENÍSTATISTIKY UŽIVATELE
Nick: Anonymous
Příspěvků: 3367
Hodnost: Warman
Varování: 0
---
Právě je 22 čer 2018, 01:07





Všechny časy jsou v UTC + 1 hodina


Pravidla fóra







Odeslat nové téma Odpovědět na téma  [ Příspěvků: 2 ] 
 V hlavní roli Gustáv Husák (2008) 
Autor Zpráva
Private
Private

Registrován: 03 zář 2008, 06:53
Příspěvky: 10
Příspěvek V hlavní roli Gustáv Husák (2008)

V hlavní roli Gustáv Husák (2008)
__.__


TV RIP

Format : AVI
Format/Info : Audio Video Interleave
File size : 815 MiB
Duration : 1h 51mn
Overall bit rate : 1 022 Kbps
Writing library : MPlayer

Video
Format : MPEG-4 Visual
Format profile : [email protected]
Format settings, BVOP : No
Format settings, QPel : No
Format settings, GMC : No warppoints
Format settings, Matrix : Default
Codec ID : DX50
Codec ID/Hint : DivX 5
Duration : 1h 51mn
Bit rate : 849 Kbps
Width : 512 pixels
Height : 288 pixels
Display aspect ratio : 16/9
Frame rate : 25.000 fps
Resolution : 24 bits
Colorimetry : 4:2:0
Scan type : Interlaced
Scan order : Top Field First
Bits/(Pixel*Frame) : 0.230
Stream size : 677 MiB (83%)
Writing library : Lavc52.0.0

Audio
Format : MPEG Audio
Format version : Version 1
Format profile : Layer 3
Codec ID : 55
Codec ID/Hint : MP3
Duration : 1h 51mn
Bit rate mode : Constant
Bit rate : 160 Kbps
Channel(s) : 2 channels
Sampling rate : 48.0 KHz
Resolution : 16 bits
Stream size : 128 MiB (16%)
Alignment : Aligned on interleaves
Interleave, duration : 24 ms (0.60 video frame)
Interleave, preload duration : 816 ms

)..(


:--:
taflin


25 dub 2009, 04:30
Profil
Private
Private

Registrován: 03 zář 2008, 06:53
Příspěvky: 10
Příspěvek Re: V hlavní roli Gustáv Husák (2008)

__.__
jako nahoře



:--:
taflin


27 dub 2009, 16:50
Profil
Zobrazit příspěvky za předchozí:  Seřadit podle  
Odeslat nové téma Odpovědět na téma  [ Příspěvků: 2 ] 

Všechny časy jsou v UTC + 1 hodina


Nemůžete zakládat nová témata v tomto fóru
Nemůžete odpovídat v tomto fóru
Nemůžete upravovat své příspěvky v tomto fóru
Nemůžete mazat své příspěvky v tomto fóru
Nemůžete přikládat soubory v tomto fóru









StahovaniZaSMS Pizza Modena MP3 free download